首页 > 影音 > 【湄公河行动】4K&1080P双版本
2017
01-04

【湄公河行动】4K&1080P双版本

【湄公河行动】4K&1080P双版本 - 第1张  | Mr.Long

译  名 湄公河行动/湄公河大案/湄公河
◎片  名 Operation Mekong
◎年  代 2016
◎国  家 中国/中国香港
◎类  别 动作/犯罪
◎语  言 普通话
◎字  幕 简体中文
◎IMDb评分 7.0/10 from 679 users
◎IMDB链接 http://www.imdb.com/title/tt6044910
◎文件格式 x264 + AAC
◎视频尺寸 3840 x 1632 & 1920 x 1080
◎文件大小 5.55 GiB & 5.31 GiB
◎片  长 2h3 min
◎导  演 林超贤 Dante Lam
◎主  演 张涵予 Hanyu Zhang
彭于晏 Eddie Peng
孙淳 Chun Sun
陈宝国 Baoguo Chen
冯文娟 Wenjuan Feng
刘显达子 Xiandazi Liu
赵健 Jian Zhao
吴旭东 Xudong Wu
吴嘉龙 Carl Wu

◎简  介

2011年10月5日,两艘中国商船在湄公河金三角水域遭遇袭击,13名中国船员全部遇难,泰国警方从船上搜出90万颗冰毒。消息传回国内,举国震惊。为了查明真相,云南缉毒总队长高刚(张涵予饰)接受了特殊任务,率领一支骁勇善战的战斗小组进入泰国境内,与潜伏在泰国的情报员方新武(彭于晏饰)碰头,二人联手深入金三角查案。经过调查,发现案件背后果然有着重重疑点,真正的凶手在嫁祸残害无辜中国船员后,不但逍遥法外,更意图利用毒品制造更大的阴谋……二人决定,不惜一切代价也要拿下真凶,打击毒品犯罪,为无辜国人讨回公道!

花絮

.彭于晏趁开机前接受了枪械训练以及学习与缉毒犬相处等连串特训,还练习泰文及缅甸语,而此前他从没接受过专业射击训练 。

.剧组请来泰王保镖负责演员们的动作训练,包括射击、近身格斗等项目。

.影片女一号冯文娟为符合角色要求,剪掉长发成了寸头。

.吴旭东为了参演该片不仅把皮肤晒得更黑,还请了散打教练对自己进行格斗训练。

.影片中伍麟凯出演一名金边中国特警,全片都用泰语对白。

.出品方博纳影业集团的总裁于冬在电影中客串了公安部副总警监。

.在一场警匪追逐戏份中,有300人参与。

.片中的绿色电灯和帮派分子佩戴的首饰等道具,都是林超贤从泰国旧货市场搜罗的“战利品”。

.在马来西亚沼泽拍摄之时,导演林超贤不慎被长达六寸的毒蜈蚣咬伤脚踝,甚至一度休克。

.该部电影得到公安部的支持,拿到了“境外持枪”许可,因此很多演员和工作人员在拍摄现场甚至要穿着真正的防弹衣进行拍摄。

General
Complete name : Operation.Mekong.2016.1080p.WEB-DL.x264.AAC-HQC.mp4
Format : MPEG-4
Format profile : Base Media
Codec ID : isom (isom/iso2/avc1/mp41)
File size : 5.31 GiB
Duration : 2 h 3 min
Overall bit rate : 6 131 kb/s
Writing application : Lavf57.25.100

Video
ID : 1
Format : AVC
Format/Info : Advanced Video Codec
Format profile : High@L4
Format settings, CABAC : Yes
Format settings, ReFrames : 4 frames
Codec ID : avc1
Codec ID/Info : Advanced Video Coding
Duration : 2 h 3 min
Bit rate : 6 000 kb/s
Width : 1 920 pixels
Height : 1 080 pixels
Display aspect ratio : 16:9
Frame rate mode : Variable
Frame rate : 25.000 FPS
Minimum frame rate : 16.223 FPS
Maximum frame rate : 25.000 FPS
Color space : YUV
Chroma subsampling : 4:2:0
Bit depth : 8 bits
Scan type : Progressive
Bits/(Pixel*Frame) : 0.116
Stream size : 5.14 GiB (97%)
Writing library : x264()-core 129 – H.264/MPEG-4
Encoding settings : cabac=1 / ref=4 / deblock=1:0:0 / analyse=0x3:0x133 / me=umh / subme=9 / psy=1 / psy_rd=0.00:0.00 / mixed_ref=1 / me_range=24 / chroma_me=1 / trellis=2 / 8x8dct=1 / cqm=0 / deadzone=21,11 / fast_pskip=0 / chroma_qp_offset=0 / threads=40 / lookahead_threads=6 / sliced_threads=0 / nr=0 / decimate=1 / interlaced=0 / bluray_compat=0 / constrained_intra=0 / bframes=4 / b_pyramid=2 / b_adapt=0 / b_bias=0 / direct=3 / weightb=1 / open_gop=0 / weightp=2 / keyint=250 / keyint_min=25 / scenecut=40 / intra_refresh=0 / rc_lookahead=60 / rc=abr / mbtree=1 / bitrate=6000 / ratetol=1.0 / qcomp=0.60 / qpmin=0 / qpmax=69 / qpstep=4 / vbv_maxrate=12000 / vbv_bufsize=6000 / nal_hrd=none / ip_ratio=1.40 / aq=1:1.00

Audio
ID : 2
Format : AAC
Format/Info : Advanced Audio Codec
Format profile : LC
Codec ID : 40
Duration : 2 h 3 min
Bit rate mode : Constant
Bit rate : 192 kb/s
Channel(s) : 2 channels
Channel positions : Front: L R
Sampling rate : 44.1 kHz
Frame rate : 43.066 FPS (1024 spf)
Compression mode : Lossy
Stream size : 168 MiB (3%)
Default : Yes
Alternate group : 1
General
Complete name : E:\迅雷下载\Operation.Mekong.2016.4k&1080p.WEB-DL.x264.AAC-HQC\Operation.Mekong.2016.4k.WEB-DL.x264.AAC-HQC.mp4
Format : MPEG-4
Format profile : Base Media
Codec ID : isom (isom/iso2/avc1/mp41)
File size : 5.55 GiB
Duration : 2 h 3 min
Overall bit rate : 6 411 kb/s
Writing application : Lavf57.25.100
IsTruncated : Yes

Video
ID : 1
Format : AVC
Format/Info : Advanced Video Codec
Format profile : High@L5.1
Format settings, CABAC : Yes
Format settings, ReFrames : 3 frames
Codec ID : avc1
Codec ID/Info : Advanced Video Coding
Duration : 2 h 3 min
Bit rate : 6 341 kb/s
Width : 3 840 pixels
Height : 1 632 pixels
Display aspect ratio : 2.35:1
Frame rate mode : Variable
Frame rate : 24.000 FPS
Minimum frame rate : 11.364 FPS
Maximum frame rate : 16 000.000 FPS
Color space : YUV
Chroma subsampling : 4:2:0
Bit depth : 8 bits
Scan type : Progressive
Bits/(Pixel*Frame) : 0.042
Stream size : 5.49 GiB (99%)
Writing library : qiyi.com vtc-test
Color range : Limited
Color primaries : BT.709
Transfer characteristics : BT.709
Matrix coefficients : BT.709

Audio
ID : 2
Format : AAC
Format/Info : Advanced Audio Codec
Format profile : HE-AAC / LC
Codec ID : 40
Duration : 2 h 3 min
Bit rate mode : Constant
Bit rate : 62.9 kb/s
Channel(s) : 2 channels
Channel positions : Front: L R
Sampling rate : 44.1 kHz / 22.05 kHz
Frame rate : 21.533 FPS (1024 spf)
Compression mode : Lossy
Stream size : 55.8 MiB (1%)
Default : Yes
Alternate group : 1

【湄公河行动】4K&1080P双版本 - 第2张  | Mr.Long

【湄公河行动】4K&1080P双版本 - 第3张  | Mr.Long

【湄公河行动】4K&1080P双版本 - 第4张  | Mr.Long

【湄公河行动】4K&1080P双版本 - 第5张  | Mr.Long

 

 

下载地址

磁力链接

最后编辑:
作者:Mr.Long
Mr.Long Blog 自娱自乐的博客

留下一个回复

你的email不会被公开。